wav Peak level 98. We provide fast downloadable and reliable service for you. RoIO Lossless Recording Database:The International Echoes Hub - Search now for Lossless Studio and Concert Recordings in SHN and FLAC. Free Lossless Audio Codec (FLAC) The FLAC file format has proved in many ways to be one of the best formats in terms of benefits in comparison to competing audio data formats. The first index in a track must have a number of 0 or 1, and subsequently, index_numbers must increase by 1. If that doesn't work, please visit our help page. Any complete CD albums, whether in multiple files or single file archive (e. The 1970 album Atom Heart Mother was recorded in cooperation with the avant-garde composer Ron Geesin. REM GENRE Rock REM DATE 1978 REM DISCID 8F0ADE09 REM COMMENT "ExactAudioCopy v1. If you are not sure what to download, see Using FLAC for instructions and guides on playing FLAC files, ripping CDs to FLAC, etc. MQS Albums Download Mastering Quality Sound,Hi-Res Audio Download, 高解析音樂, 高音質の音楽. On our site you can download lossless music for free and without registration, favorite performers in flac format, for fans to listen to vinyl digitization - Vinyl rip, gourmets of the music world who want to listen to multi-channel music are offered - Audio-DVD, SACD, DTS 5. Fix of LB-2637: WAV > Wave Repair 4. 71 GB Download torrent - Pink floyd FLAC | Fast and easy torrent search. FLAC files range from 231 kbps to 1184 kbps. Best Rated Casino Sites in the UK 2020. Promoting prosperity and growth in Rome and Floyd County for and through business memberships. Pero es el The Wall el unico que no he podido hacer funcionar. A great Heart show recorded at the Cal Jam II festival at the Ontario Motor Speedway, California, on March 18, 1978. Wenn es Probleme beim Entpacken gibt das aktuelle Winrar benutzen. Play the songs in the blog posts in the music player! STAND UP TO FASCISM. Download intitle index of mp3 pink floyd the other side of the moon using General-Search. Fans of Logitech Squeezebox devices and software can also get a plugin to access the station. Set for release on July 1, THE DIVISION BELL was the last studio album to be released by the band: David Gilmour, Nick Mason and Richard Wright. Pink Floyd - Pandora. Wish You Were Here T-Shirt. Download FLAC 16bit, 24bit Music of all genres and styles. Hello, today I tried to import my audio files into MC, which consist mostly of FLAC image files with accompanying CUE sheets. Pink Floyd - Oh By The Way [14 Albums (16CD)] [BOX SET] [ORIGINAL RECORDING REMASTERED] FLAC Download (3% Recovery) EAC-CUE-FLAC-LOG-TAU-NFO-COVERS The Piper at the Gates of Dawn (single wallet) August 1967. Hola, mucha gracias por compartir este material. Poll (new votes) Poll (no new votes) Locked Topic Moved Topic. By cataloging these performances, we can study how pieces have developed over time. The Pink Floyd Vinyl Bootleg Guide HOME. Just thought I would let you know that there is another version of this show circulating that sounds much better to my ears. Daily updates of the music database. Progressive Rock - Fusion - Avantgarde - Folk # - A John Wetton,Chasing the Dragon,1994,ENG,Prog,FLAC,. 2013 08:02: 25 MB: Red Hot Chili Peppers - Salute to Kareem (Demo). 50+ videos Play all Mix - Pink Floyd - The Dark Side of the Moon - Money (FLAC) YouTube Pink Floyd - Dark Side of the Moon - Full Album 2019 - Duration: 42:48. 다시 말해서, MP3 , AAC , Vorbis 와는 달리 오디오 스트림에 손실이 발생하지 않는다. Maná Grandes Exitos MEGA FLAC Descargar Maná greatest hits discografia mega. class mutagen. FLAC via Mega. Pink Floyd: 0. Welcome to /r/OpenDirectories. Red Hot Chili Peppers - Pretty Little Ditty. Pero es el The Wall el unico que no he podido hacer funcionar. The 1970 album Atom Heart Mother was recorded in cooperation with the avant-garde composer Ron Geesin. • ISO Audio BT, • Inactive Audio BT, • Pulled Audio BT Moderators. 2017 registriert haben, können sich mit den ihnen bekannten Zugangsdaten einloggen. 3" PERFORMER "Pink Floyd" TITLE "A Foot In The Door - The Best Of Pink Floyd". this was ranked #2. Suggestions For Tagging Vorbis/FLAC Files. It was released in the UK on 6 March 2006, Gilmour's 60th birthday, and in the US the following day. 98: Pink Floyd / The Wall/ 2 discs Preowned Gold CD UCMOB 2537 $315. As of march 2016, this website contained profiles of 8,600 musicians. Das Album besteht aus einer einzelnen Datei, HIER die Lösung. (Progressive Rock/Psyched elic Rock) Pink Floyd - Too Early For A Gig - 1970, FLAC (tracks+. This blog is merely an index with public links for audio recordings of independent origin (ROIO) which have not been officially released. Flac music download, free album Pink Floyd - The Dark Side of the Moon [Japan] (1983), complete your 24bit high quality lossless collection. You receive credits that are earned for an increasing shared collection of music and for time spent logged in. Please don't be so "this is 100% incorrect". Download "Pink Floyd - Oh By The Way [Box Set 14CD][FLAC]" torrent (Audio » Lossless). 3" PERFORMER "Pink Floyd" TITLE "A Foot In The Door - The Best Of Pink Floyd". Index of /music/Led Zeppelin/ flac more rock up a level. If that doesn't work, please visit our help page. In general, quieter music compresses more with FLAC. The 1970 album Atom Heart Mother was recorded in cooperation with the avant-garde composer Ron Geesin. flac files to mp3. Код: REM GENRE "Progressive Rock" REM DATE 2011 REM DISCID E812A910 REM COMMENT "ExactAudioCopy v1. Zoe Muth and The Lost High Rollers - Zoe Muth a. Listen to this and millions more tracks online. Naggo Morris - Going Places Bw A True You Na Know (SG 24) Reissue - 12 INCH VINYL - FLAC - 2015 [Megaupload] http://reggaeddl. This album was meant to feature some new songs and remakes of some his lesser-known songs from the 1960s. Promoting prosperity and growth in Rome and Floyd County for and through business memberships. CrimsonKing List 18 de setembro de 2008. studio musician in the 1970s, Larry Carlton’s signature sound graced chart-toppers, including some by Herb Alpert, Quincy Jones, Michael Jackson, John Lennon, and Jerry Garcia. Vanden Plas - The Ghost Xperiment Awakening (2019) [FLAC] November 9, 2019. Extracted to FLAC from original silver CDs via EZ CD Audio Converter. DSD音乐高解析度无损音乐(Direct Stream Digital DSD )海量DSD音乐资源下载,包含DSF格式,DFF下载,DSD格式音乐下载,原装正版DSD音源免费下载。. flac Pink Floyd - The Wall Disc 2. I hope this helps :D. Pink Floyd fue una banda de rock británica, considerada un icono cultural del siglo xx y una de las bandas más influyentes en la historia de la música, que obtuvo gran popularidad gracias a su música psicodélica que evolucionó hacia el rock progresivo con el paso del tiempo. Скачать Pink Floyd - The Endless River (2014) 2LP [FLAC 2. flac" FLAC REM FILE-DECODED-SIZE 05:41:50 INDEX 01 00:00:00 FILE "Pink Floyd - 1987 - A Momentary Lapse of Reason - 06 - Yet Another Movie. I have not provided a sound quality rating as virtually all are of sufficient high quality to rate around 5 out of 5, some are worthy of 5+ like the best official releases. This portal is intended for shadowing experiences, nursing and allied health students, Nurse Practitioners, and medical students attending colleges who are clinical partners with Floyd Medical Center. File formats: FLAC, WAV, MLP, APE, TTA, ALS, etc. php?topic=877657. wav” WAVE TRACK 03 AUDIO TITLE “Set The Controls For The Heart Of The Sun” PERFORMER “PINK FLOYD” INDEX. com - Here you will find unbiased online casino reviews, the latest news and offers from casino sites around the web, and data on all casino games. Think Floyd DVD £8. In general, quieter music compresses more with FLAC. Код: REM DISCID 6510BB07 REM COMMENT "ExactAudioCopy v0. Concierto de PINK FLOYD EL SONIDO DELICADO DEL TRUENO Formato WAV y FLAC sin perdida de audio. Some commands may be invoked using Rest_api interface. Listen to hundreds of high fidelity Bruce Springsteen concerts from legendary venues. - Full access to All previous and future Reliquary's Ossuary posts' Direct Download links. 8MHz/64fs Download FLAC Downloads FLAC 176kHz/24bit Download FLAC 192kHz/24bit Download FLAC 352kHz. Pink Floyd - Wembley 1977 1st Night (Sigma 232) Pink Floyd - Radio City Music Hall 1973 (Sigma 215) Pink Floyd - Spring Festival (Golden Eggs EGG 93/94) Pink Floyd - Lyon Reel (Sigma 229) Pink Floyd - Berlin 1977 1st Night Soundboard Master (Sigma 224) Pink Floyd - Moon Over Ocean (Golden Eggs EGG 55/56). Credit allows you to download with unlimited speed. Index of /mp3/mp3_7899 Name Last Modified Size Description Bob Seger - Pink Floyd - Special Tribute (2002) 29-Nov-2005 4M - - The Script - The Script. 15 Songs, 1 Hour 44 Minutes Released: 22 Nov 1988 ℗ 2016 Pink Floyd (1987) Ltd. GetMetal CLUB - Download New Metal and Core Releases for free. Pink Floyd - The Dark Side Of The Moon BoxSet 3CD (2018)Formato: FLACQualità: LoselessAnno: 2018Genere: Rock Prog. To immediately find what you need to enter a keyword in the form below. I wound up using MP3Gain to alter the playback volume so as not to blow my ears off during workouts. Direct download via magnet link. : Release Originale :. Download Depeche Mode - Discography (1981 - 2013) EAC Rip 236xCD + 5xDVD FLAC/APE Tracks & Image + Cue + Log Full Scans Included Total Size: 93. Pink Floyd · FLAC The Piper At The Gates Of Dawn Release date: 2007. FLAC encoded Level 8 with XLD Version 20100302 (116. Pero es el The Wall el unico que no he podido hacer funcionar. (Soundboard FLAC) Pink Floyd DB: http://www. 50+ videos Play all Mix - Pink Floyd - The Dark Side of the Moon - Money (FLAC) YouTube Pink Floyd - Dark Side of the Moon - Full Album 2019 - Duration: 42:48. Concierto de PINK FLOYD EL SONIDO DELICADO DEL TRUENO Formato WAV y FLAC sin perdida de audio. CNET explains what FLAC is, where to buy music in the format, and how to play it on your phone, computer or hi-fi. RoIO Lossless Recording Database:The International Echoes Hub - Search now for Lossless Studio and Concert Recordings in SHN and FLAC. Top 6 sites for buying FLAC music. (Prog Rock, Art Rock, Psychedelic Rock, Classic Rock) Pink Floyd - Oh By The Way (16CD Box Set) - 2007 (EMI # 50999 511267 2 8), FLAC (tracks+. cue Pink Floyd - The Wall Disc 2. Included are the original remastered album, a disc of additional material and an expanded CD booklet. 00b: October 5 2013 at 23:05: Enya - Only Time Collection. Any media downloaded through these links is for promotional, review, and research purposes only and should be deleted within 24 hours. DFF flaws on begining disc 1 tracks 2,9 and 10 are mic bumps > FLAC, sector align. On an Island is the third solo album by Pink Floyd member David Gilmour. This is a complete alphabetical list, as of December 2016. Rick Wakeman · FLAC Journey to the Centre of the Earth top of this page - back to index. 2013 08:02: 25 MB: Red Hot Chili Peppers - Salute to Kareem (Demo). BOUDAIN's Way of the Hoof is a storm of Space, Pork, and Riffs! Recorded at SpaceLab 420 studios, the follow-up to the band's 2013 EP is perfect for anyone who enjoys the kind of groove that makes you want to smoke out, grill out, and chill with the swine. See the extras section below for third-party tools that support or use FLAC. The album folders should be saved as sub-folders under the Artist Name making it easy to find albums when working with the music data folders. It's rumored that if you listen carefully you can hear the police busting. From Wikipedia: Bootlegging is often incorrectly referred to as piracy but there are important differences between the two terms. 00b: October 6 2013 at 12:00: requiem for a dream - OST: 0. If you need more precise search, use the option «Advanced Search». It is a compressed file; however, since FLAC files are lossless, there is no quality loss. 2MHz/256fs Download DSD (Single Rate) 2. Zabriskie Point is a soundtrack album to the Michelangelo Antonioni film of the same name. Think Floyd DVD £8. In general, quieter music compresses more with FLAC. The ultimate place to find and download great music in lossless format for freeenjoy!. We only index and link to content provided by other sites. It is a compressed file; however, since FLAC files are lossless, there is no quality loss. com This site does not store any files on its server. Неllоwееn - Кеереr Оf Тhе Sеvеn Кеуs [Рt. MQS Albums Download Mastering Quality Sound,Hi-Res Audio Download, 高解析音樂, 高音質の音楽. Housed in a gatefold sleeve with new artwork, including rare photographs by Yuka Fujii, design by Chris Bigg, and printed inner bags plus a download card. Dedicated to live performances and their respective recordings, along with details. Pink Floyd - The Endless River only to index the Torrents meta information and provide search. Код: REM GENRE "Progressive Rock" REM DATE 2011 REM DISCID E812A910 REM COMMENT "ExactAudioCopy v1. With additional production from David Gilmour and Andy Jackson, over 13 hours of unreleased audio and audiovisual material, including the sought-after 1989 Venice and 1990 Knebworth concerts, 'Pink Floyd The Later Years' is a must for all fans. Pink Floyd - The Discovery Studio Album Box Set TNT Village. Dark Side of the Moon T-Shirt. Tous les liens sont Interchangeables: vous pouvez prendre chaque partie d'un hébergeur différent pour télécharger plusieurs fichiers en parallèle. The early seventies became the new period in the Pink Floyd history. To immediately find what you need to enter a keyword in the form below. Pink Floyd - Wembley 1977 1st Night (Sigma 232) Pink Floyd - Radio City Music Hall 1973 (Sigma 215) Pink Floyd - Spring Festival (Golden Eggs EGG 93/94) Pink Floyd - Lyon Reel (Sigma 229) Pink Floyd - Berlin 1977 1st Night Soundboard Master (Sigma 224) Pink Floyd - Moon Over Ocean (Golden Eggs EGG 55/56). 94 GB Electronic. Скачать торрент (Psychedelic Rock, Pop Rock) Pink Floyd - Dark Side Of The Moon (1988) [FLAC (Tracks+. Exclusive releases and albums of various styles and music genres in high quality are available to you to listen, buy and download. 8MHz/64fs Download FLAC Downloads FLAC 176kHz/24bit Download FLAC 192kHz/24bit Download FLAC 352kHz. CUE), Lossless] с торрент трекера underver. I would like to know about this before i start ripping. The box set includes all of their standard studio albums, except for The Endless River, which would not be released for another three years. I can not find the convert option on any menus. (Audience SHN) title: PIGS MIGHT FLY ? [STTP 128/129] date/venue:1977 July 3 - Madison Square Garden, New York City, New York audience - recorder 2. Pink Floyd – The Origins (2018) Pink Floyd – The Piper At The Gates Of Dawn (Mono) (2018) Pink Floyd – Essentials (2018) Pink Floyd – One Of These Days (2018) Pink Floyd – Atom Heart Mother (1970) Pink Floyd – More (Soundtrack) (1969) Pink Floyd – From Abbey Road to Britannia Row: The Extraction Tapes (2014) Pink Floyd – Animals. You receive credits that are earned for an increasing shared collection of music and for time spent logged in. 2013 16:38: 28 MB: Red Hot Chili Peppers - Sexy Mexican Maid (Original Long Version). Index of /music/Led Zeppelin/ flac more rock up a level. Zabriskie Point is a soundtrack album to the Michelangelo Antonioni film of the same name. Gold (1978), Folk Music of the Region of Asturias (1984), Academy Award Themes (1984), Japanese Light Music (1993), The Symphonic Music of Pink Floyd (1994). I usually download it on flaces. Bruce Springsteen (Steel Mill) The Upstage Asbury Park, NJ January 22, 1971 (Previously Un-circulated) (The penultimate Steel Mill show) Transfer: Cassette Master > Reel > CDR > EAC Rip >. 15 Songs, 1 Hour 44 Minutes Released: 22 Nov 1988 ℗ 2016 Pink Floyd (1987) Ltd. HDtracks high resolution music downloads. , marketed and distributed by Parlophone Records Ltd. The International Echoes Hub is a truely interactive environment including real-time chat, private messaging, a virtual pub with a bar maid who loves her tips. Full album releases available on the ed2k network. Floyd Thursby - To Those in Flames (2019) FLAC: rapidgator: Download. Loading Close. I hope this helps :D. If you need more precise search, use the option «Advanced Search». What is FLAC? The high-def MP3 explained. - Monster (3CD+BD-V) October. Housed in a gatefold sleeve with new artwork, including rare photographs by Yuka Fujii, design by Chris Bigg, and printed inner bags plus a download card. From a device on the same network, you can use. 8MHz/64fs Download FLAC Downloads FLAC 176kHz/24bit Download FLAC 192kHz/24bit Download FLAC 352kHz. com This site does not store any files on its server. Titolo Discussione L S C Autore Discussione Risposte Visite Ultima azione; Madness - Discografia (1979-1992) [Mp3 192-320 Kbps] Ska Revival, 2 Tone Ska. I usually download it on flaces. cue), lossless Страницы: 1 Главная » Рок-музыка » Зарубежный Rock » Progressive & Art-Rock (lossless). Download FLAC discography of legendary pop and rock singers. Pink Floyd - Louder Than Words. BipTunia LOSSLESS FLAC Album 33 and 34 "AN ANALOG SYNTH IN A DIGITAL WORLD" Pink Floyd, Tangerine Dream, David Bowie, Fugazi, The Doors, Depeche Mode, Jim Carroll. Red Hot Chili Peppers - Pretty Little Ditty. Bruce Springsteen (Steel Mill) The Upstage Asbury Park, NJ January 22, 1971 (Previously Un-circulated) (The penultimate Steel Mill show) Transfer: Cassette Master > Reel > CDR > EAC Rip >. Promoting prosperity and growth in Rome and Floyd County for and through business memberships. Wish You Were Here CD £8. Скачать Pink Floyd - The Endless River (2014) 2LP [FLAC 2. FLAC via Mega. The 1970 album Atom Heart Mother was recorded in cooperation with the avant-garde composer Ron Geesin. I'm not willing to endure a 3x slowdown for the marginal gains of -8. Credit allows you to download with unlimited speed. File formats: FLAC, WAV, MLP, APE, TTA, ALS, etc. Cue), Lossless] с торрент трекера underver. Pink Floyd - The Dark Side Of The Moon[11163]. Some 225,000 tickets were sold, setting a record for a single-day paid attendance at a rock concert but the crowd size has been estimated at more than 300,000. A labour of love tribute to King Crimson by Fernando Perdomo, guitarist and bassist of The Dave K. Daily updates of the music database. Dark Side of the Moon T-Shirt. BipTunia LOSSLESS FLAC Album 33 and 34 "AN ANALOG SYNTH IN A DIGITAL WORLD" Pink Floyd, Tangerine Dream, David Bowie, Fugazi, The Doors, Depeche Mode, Jim Carroll. - Full access to All previous and future Reliquary's Ossuary posts' Direct Download links. I wound up using MP3Gain to alter the playback volume so as not to blow my ears off during workouts. php?topic=877657. cue), lossless Страницы: 1 Главная » Рок-музыка » Зарубежный Rock » Progressive & Art-Rock (lossless). File formats: FLAC, WAV, MLP, APE, TTA, ALS, etc. That is the main problem I have with it. Dark Side of the Moon T-Shirt. We provide fast downloadable and reliable service for you. Bruce Springsteen (Steel Mill) The Upstage Asbury Park, NJ January 22, 1971 (Previously Un-circulated) (The penultimate Steel Mill show) Transfer: Cassette Master > Reel > CDR > EAC Rip >. So, I guess to avoid the majority of users having to re-tag their flac files, Steven is sticking with SETSUBTITLE for now. Welcome to stroke-of-luck. Full album releases available on the ed2k network. wav" WAVE Which when the songs are shared or moved. Toy remains officially unreleased. flac files to mp3. If DISCSUBTITLE does become the more widely accepted tag, and more people ask for its support, then a change will probably be made. Pink Floyd – The Origins (2018) Pink Floyd – The Piper At The Gates Of Dawn (Mono) (2018) Pink Floyd – Essentials (2018) Pink Floyd – One Of These Days (2018) Pink Floyd – Atom Heart Mother (1970) Pink Floyd – More (Soundtrack) (1969) Pink Floyd – From Abbey Road to Britannia Row: The Extraction Tapes (2014) Pink Floyd – Animals. Fix of LB-2637: WAV > Wave Repair 4. 2017 registriert haben, können sich mit den ihnen bekannten Zugangsdaten einloggen. I had previously had rather good experiences with XBMC on the same files - everything was correctly catalogued, and even cover art was retrieved correctly in most cases- Where that didnt work, correcting it manually was easy. From a device on the same network, you can use. a large collection. The fate of our site directly depends on its relevance. Echoes: The Best of Pink Floyd is the fourth compilation album by the English rock band Pink Floyd, released on 5 November 2001 by EMI internationally and a day later by Capitol Records in the United States. It remained on the chart for 26 weeks. He’s renowned for his polish and nuance, as in his work with The Crusaders, Steely Dan’s best selling album, Aja, and a slew of smooth jazz CDs. CUE), Lossless] с торрент трекера underver. Pink Floyd Discography (Lossless) Albums Japan/1967 The Piper at the Gates of Dawn (1987 CP32-5269) (2nd Japan)/Artwork/Matrix 2. UK QUAD LP01. INDEX OF COMPOSERS; Tuesday, April 25, 2017. mp3 8-Jan-2007 11:35 Pink Floyd - Dark Side of the Moon. causes the CUE sheet to be useless without manually updating it. 0 24/96|image (Vinyl-Rip)] torrent. Some commands may be invoked using Rest_api interface. 2, Area 51, Hilden, Germany - 02 & 03. com File Share Search Engine. The discography of Pink Floyd, a British rock band, consists of fifteen studio albums, three live albums, nine compilation albums, five box sets, six extended plays, and twenty-seven singles. Gold (1978), Folk Music of the Region of Asturias (1984), Academy Award Themes (1984), Japanese Light Music (1993), The Symphonic Music of Pink Floyd (1994). Free Lossless Audio Codec (FLAC) The FLAC file format has proved in many ways to be one of the best formats in terms of benefits in comparison to competing audio data formats. com you can download lossless music in popular formats FLAC, APE, ALAC, MP3, M4A. causes the CUE sheet to be useless without manually updating it. The early seventies became the new period in the Pink Floyd history. 2019 180g vinyl edition of David Sylvian's 1985 experimental instrumental recording Alchemy: An Index of Possibilities. 00b: October 5 2013 at 23:06. Welcome! Floyd Skeren Manukian Langevin's Employment Law Department represents employers in a variety of employment related matters by providing practical advice, preventative counseling, compliance training, implementation of workplace polices, and defense including the following workplace topics:. Not far removed from Syd Barrett-era Pink Floyd, the jazzy chord changes, unpredictable bursts of scat singing, glib free-association lyrics, ominous buzzing organ, and Robert Wyatt's soulful rasp convey the freewheeling abandon and giddy high spirits that characterized the best early British psychedelia. The following recommendations were developed by a community of Ogg/Vorbis users for their own use. Zabriskie Point is a soundtrack album to the Michelangelo Antonioni film of the same name. Hello, today I tried to import my audio files into MC, which consist mostly of FLAC image files with accompanying CUE sheets. Download full Us And Them The Symphonic Music Of Pink Floyd album released in 2005 or select any of the 1 Us And Them The Symphonic Music Of Pink Floyd songs. REM GENRE Rock REM DATE 1978 REM DISCID 8F0ADE09 REM COMMENT "ExactAudioCopy v1. 2MHz/256fs Download DSD (Single Rate) 2. Welcome to /r/OpenDirectories. Hola, mucha gracias por compartir este material. You'll find it in addition a large set that we exceptionally savored researching. Adult content must be labeled [NSFW]. But what concerns me is that some people might ASSUME that it was above CD resolution, because of the HD. pink floyd, Wyszukiwarka muzyki. The first index in a track must have a number of 0 or 1, and subsequently, index_numbers must increase by 1. 00b: October 6 2013 at 12:00: Rihanna - Discography (2005-2010) {Lossless} 0. Dream Theatre-The Big Medley (Pink Floyd, Kansas, Queen, Journey, Dixie Dregs & Genesis) (Dream Theater). Continue reading Various Artists - Charlie's Angels (Original Motion Picture Soundtrack) (2019) [Official Digital Download 24bit/48kHz]. Hola, mucha gracias por compartir este material. It was his first solo album in twenty two years since 1984's About Face and twelve years since 1994's Pink Floyd album The Division Bell. , a Warner Music Group Company. I am blonde, perhaps that is it? In any event, guidance is needed! thank you if you can help. With additional production from David Gilmour and Andy Jackson, over 13 hours of unreleased audio and audiovisual material, including the sought-after 1989 Venice and 1990 Knebworth concerts, 'Pink Floyd The Later Years' is a must for all fans. Andre Rieu - Top 100 - CD 4. Loading Close. Pink Floyd - The Wall (Remastered) + [FLAC] Radiohead - OK Computer OKNOTOK 1997 2017 + [FLAC] David Bowie - Loving the Alien (1983 - 1988) + [FLAC] Armin van Buuren - A State of Trance, Ibiza 2016 (Mixed by Armin van Buuren) + [FLAC] Stratovarius - Best Of (Remastered) - 2016; Pink Floyd - The Division Bell 20th Anniversary Double Vinyl. I have HP set to download lossless files and then re-encode them to ALAC (via the very useful advanced encoding feature). Any complete CD albums, whether in multiple files or single file archive (e. The album folders should be saved as sub-folders under the Artist Name making it easy to find albums when working with the music data folders. Zona-Musical Forum Index » Full albums rapidshare » Pink Floyd - A Tree Full Of Secrets (18 CD Bootleg Set) View previous topic :: View next topic Pink Floyd - A Tree Full Of Secrets (18 CD Bootleg Set). Any media downloaded through these links is for promotional, review, and research purposes only and should be deleted within 24 hours. Audiophile Lossless Audio FLAC Sharing dan Download Ane mau sharing Link Download lagu-lagu dengan kualitas Lossless Audio FLAC 16Bit / 44. 2MHz/256fs Download DSD (Single Rate) 2. Das Album besteht aus einer einzelnen Datei, HIER die Lösung. Watch Pink Floyd - The Discovery Studio Album Box Set [FLAC] TNT Village Free Movies Online, Like 123Movies, Fmovies, Putlockers, Popcorntime, Netflix or Direct Download Pink Floyd - The Discovery Studio Album Box Set [FLAC] TNT Village via Magnet Link. Concierto de PINK FLOYD EL SONIDO DELICADO DEL TRUENO Formato WAV y FLAC sin perdida de audio. You can help us by sharing the link with friends, in social networks, message boards and other mass media. The bitrate has nothing to do with the worthyness of the music or whether it is "complex" enough. Click for additional information. Pero es el The Wall el unico que no he podido hacer funcionar. Some 225,000 tickets were sold, setting a record for a single-day paid attendance at a rock concert but the crowd size has been estimated at more than 300,000. We were talking Pink Floyd, Jim. Download millions of torrents with TV series, movies, music, PC/Playstation/Wii/Xbox games and more at Bitsnoop. BOUDAIN's Way of the Hoof is a storm of Space, Pork, and Riffs! Recorded at SpaceLab 420 studios, the follow-up to the band's 2013 EP is perfect for anyone who enjoys the kind of groove that makes you want to smoke out, grill out, and chill with the swine. 1 % Extraction speed 2. A great Heart show recorded at the Cal Jam II festival at the Ontario Motor Speedway, California, on March 18, 1978. com - Here you will find unbiased online casino reviews, the latest news and offers from casino sites around the web, and data on all casino games. Неllоwееn - Кеереr Оf Тhе Sеvеn Кеуs [Рt. 1 King Crimson – The ConstruKction of Light & The Power to Believe Marillion – Afraid of Sunlight & Script for a Jester's Tear Pink Floyd – Animals (SACD) R. (Progressive Rock/Psyched elic Rock) Pink Floyd - Too Early For A Gig - 1970, FLAC (tracks+. Download full Us And Them The Symphonic Music Of Pink Floyd album released in 2005 or select any of the 1 Us And Them The Symphonic Music Of Pink Floyd songs. Download Dark Side Of The Moon by Pink Floyd at Juno Download. Direct download via magnet link. [SIZE="4"][B][FONT="Book Antiqua"]«Некоторые звуки действуют ничуть не хуже, чем пара чашек кофе», — говорит выдающийся французский специалист в области изучения слуха Альфред Томатис. It was released in the UK on 6 March 2006, Gilmour's 60th birthday, and in the US the following day. I've ripped the 5. mahavishnu floyd said I love this blog. 提供超过500首经典歌曲和经典老歌的无损音乐下载,包括最新好听的歌曲、粤语经典歌曲、欧美经典歌曲、经典歌曲排行榜等等,均为ape或flac无损格式的高品质音乐. It remained on the chart for 26 weeks. flac" WAVE. The most used API transport in Volumio2 is its Websockets API as it allows almost real time communication with multiple clients. 105 GREAT MASTERS OF CLASSICAL MUSIC A Huge Collection of Classical Music FLAC MP3 free download Compositor : 105 GREAT. I;II] (1987) + Кеереr Оf Тhе Sеvеn Кеуs: Тhе Lеgасу. Poll (new votes) Poll (no new votes) Locked Topic Moved Topic. 3 to fix very minor index clicks between some tracks and remove leading/trailing digital silences. PERFORMER "PINK FLOYD" INDEX 01 00:00:00 FILE "02 - Remember A Day. php?topic=877657. The box set includes all of their standard studio albums, except for The Endless River, which would not be released for another three years. I would like to know about this before i start ripping. I wound up using MP3Gain to alter the playback volume so as not to blow my ears off during workouts. to is the largest czech cloud storage. The first index in a track must have a number of 0 or 1, and subsequently, index_numbers must increase by 1. Kredit umožní i stahování neomezenou rychlostí. Pink Floyd were an English rock band who earned international recognition for their psychedelic rock music in the late 1960s, and for their progressive rock music from the 1970s onward. As such, there is no copyrighted material contained herein, only links to external servers. If that doesn't work, please visit our help page. Direct download via magnet link. Will not be normal that come with the candidate to see or watch products. flac" FLAC REM FILE-DECODED-SIZE 05:41:50 INDEX 01 00:00:00 FILE "Pink Floyd - 1987 - A Momentary Lapse of Reason - 06 - Yet Another Movie. a large collection. rar) of a single artist, as well as albums with various artists such as the Now series of compilations (with VA tag); lossless is a class of data compression algorithms that allows the exact original data to be reconstructed from the compressed data, meaning that. flac" FLAC REM FILE-DECODED-SIZE 05:41:50 INDEX 01 00:00:00 FILE "Pink Floyd - 1987 - A Momentary Lapse of Reason - 06 - Yet Another Movie. Pink Floyd "1977-03-30 Stafford Bingley Hall" Single Disc Upgrade Flac If this is your first visit, be sure to check out the FAQ by clicking the link above. If you need more precise search, use the option «Advanced Search». What is FLAC? The high-def MP3 explained. Unprotected directories of pics, vids, music, software and otherwise interesting files. FLAC files range from 231 kbps to 1184 kbps. BipTunia LOSSLESS FLAC Album 33 and 34 "AN ANALOG SYNTH IN A DIGITAL WORLD" Pink Floyd, Tangerine Dream, David Bowie, Fugazi, The Doors, Depeche Mode, Jim Carroll. Buy and download flac hi-res music every day from your favorite artist. wav" WAVE TRACK 03 AUDIO TITLE "Set The Controls For The Heart Of The Sun" PERFORMER "PINK FLOYD" INDEX. causes the CUE sheet to be useless without manually updating it. flac" WAVE TRACK 01 AUDIO TITLE "Wish You Were Here" PERFORMER "Pink Floyd" INDEX 00 00:00:00 INDEX 01 00:00:07 TRACK 02 AUDIO TITLE "Learning To Fly" PERFORMER "Pink Floyd" INDEX 01 04:48:42 TRACK 03 AUDIO TITLE "Run Like Hell" PERFORMER "Pink. Неllоwееn - Кеереr Оf Тhе Sеvеn Кеуs [Рt. On our site you can download lossless music for free and without registration, favorite performers in flac format, for fans to listen to vinyl digitization - Vinyl rip, gourmets of the music world who want to listen to multi-channel music are offered - Audio-DVD, SACD, DTS 5. In general, quieter music compresses more with FLAC. If you have any questions about this content, please contact the administrators of this directory, who made it publicly available. We only index and link to content provided by other sites. Index_numbers must be unique within a track. If DISCSUBTITLE does become the more widely accepted tag, and more people ask for its support, then a change will probably be made.